Addeddate 2015-09-18 03:15:27 Identifier Smithsonian-Collection-of-Classic-Jazz-lossless Scanner Internet Archive HTML5 Uploader 1. Filename E:EACSade - The Ultimate Collection (2011) [FLAC]CD15 - Is it a crime. ALBUMS: Part1: 27 albums. If for any reason you are not completely satisfied with a Time Life product, simply return it within 30 days. In the meantime, these 50 best jazz albums are essential for anyone looking to start a collection, or to go beyond classics they already know. For novice jazz collector, this is an excellent opportunity to start jazz collection. 18 GB (FLAC Mch) + 1. Ping Sounds. Barb Jungr. Discover amazing music and directly support the artists who make it. Catalog Record - Electronic Resource Available Clark Decker and his mother Madeline Robertson Decker discuss their personal histories, including details about their family's century farm, which was established in 1849 in the town of Stockholm, just east of Potsdam. Tiffany 03. Official website of Brandi Carlile. Download 5. Hemi-Sync is home to the largest collection of binaural music available to help you relax, focus, meditate, sleep & lead a more vibrant life. Dec 1st 1987. Fender launches 60th Anniversary Road Worn Jazz Bass with weathered finish and matching headstock. Here is a list of 27 AC/DC albuma that you will download with this link:- The Best Of AC/DC 76 Jailbreak Back in Black BallBreaker Blow Up Your Video Bonfire - (1) Live from The A. The Original Dixieland Jazz Band - The First Jazz Recordings 1917-1921 [1998] (flac). Yellow Magic Orchestra - YMO Ultimate Collection (2x SACD, 2003) SACD ISO + Hi-Res FLAC; Ryuichi Sakamoto - Thousand Knives (1978) [Japanese Reissue '2016] SACD ISO + Hi-Res FLAC. com ArtWork: not included Size. 1 % Track quality 100. Label: Soul Jazz Records ‎– SJR CD392 Genre: Ambient, Experimental VA - Tramp 45 RPM Single Collection, Vol. Here is a list of 27 AC/DC albuma that you will download with this link:- The Best Of AC/DC 76 Jailbreak Back in Black BallBreaker Blow Up Your Video Bonfire - (1) Live from The A. The website for classical music: Find the latest DG and Archiv recordings and news. Benjamin Koppel - The Ultimate Soul & Jazz Revue (2020) FLAC FLAC 16 bit / Jazz 1-09-2020, 15:38 32 Music_land All albums Benjamin Koppel Quality: FLAC 16 bit / 44. Yihequan – Love Theme From Spartacus 3. Clark Decker and Madeline Robertson Decker interview conducted by Varick Chittenden, 2013-02-04. There was a day when the Sony Walkman was the go-to music player. At last this website now displays over 2800 images from this historic time. Barb Jungr. Biographies, concerts and videos about artists, conductors and composers. Download VA - Romantic Jazz - Collection 2000 (2000) FLAC / MP3 or any other file from Music category. FLAC (tracks) 24-bit/96 kHz | Artwork: front cover | 01:16:57 | 1645 mb Vocal Jazz, Soul | Label: Blue Note. The new album By The Way, I Forgive You is available now. 6 MHz) + FLAC 24 bit / 192 kHz (Tracks) Artist: Leif Strands Kammarkör. 75 GB 2019-06-21 0 0. The BBC used. Agathe Jazz Quartet - I've Got a Crush On You. This time from a good friend, Street Jazz EP by Filip Szostak Just like a late summer harvesting…” Release page (Bandcamp) Format: 4 x File, EP, MP3/320 kbps, FLAC, ALAC, AIFF, WAVE Released: 19 Jul 2018 Style: Minimal, Microhouse, Jazz. Various Artists – Jazz Sax – Verve 50 Released: 2012 Genre: Jazz Bitrate: FLAC & MP3 320 KBPS. 0 % Test CRC 8237E8BE Copy CRC 8237E8BE Track not present in AccurateRip database Copy OK Track 6 Filename E:EACSade - The Ultimate Collection (2011) [FLAC]CD16 - Never as good as the first time. MusicDirect. Koda Khan - Tales from the Darkside 83-88. Respect is due. Sep 17th 1987. Yellow Magic Orchestra - YMO Ultimate Collection (2x SACD, 2003) SACD ISO + Hi-Res FLAC; Ryuichi Sakamoto - Thousand Knives (1978) [Japanese Reissue '2016] SACD ISO + Hi-Res FLAC. Gwen Guthrie - Collection 1982-86 FLAC MP3 program facebook password finder codigo de ativacao net spy pro download facebook mobile 4. For you who are learning about home recording and wanna learn about mixing and mastering. Cue, Log, Artwork) Time: 41:31 min. Coleman Hawkins : One Note Samba (Samba De Uma Nota So) [00:06:00] 02. The Francis Wolff photo collection Mosaic Images has curated the Francis Wolff photo collection since 1992, identifying and archiving over 20,000 images taken at hundreds of Blue Note sessions between 1940 and 1970. Rumba De Bodas – Freaky. Mark caters to a wide audience in this album from rock to jazz and country. Sign up to Be the first to hear about new music, tour dates, exclusive giveaways, and more!. High Voltage SID Collection is a Commodore 64 music collection. Collect all of the music CDs that you own into a large pile. org Verve Jazz Masters 60CD flac Music 18 hours idope. [Album] Acoustic Hits, Jazz douce musique d’ambiance – Jazz After Work [FLAC + MP3] [Album] JUJU – GIFT [FLAC Hi-Res + MP3] [Album] Various Artists – Sensual Smooth Jazz (2016/MP3/RAR) [Album] Cafe lounge Jazz – First Class Lounge – Premium Jazz Piano Collection (2018. Download classical music FLAC, Hi-Res, SACD. Year Of Release: 2010 Format: Flac, Tracks Bitrate: lossless Sample Rate: 16bit/44. Artist: Al Green Title Of Album: Let's Stay Together Year: 1972 Location: USA Label: Right Stuff Genre: Rhythm & Blues, Soul Quality: FLAC (CD Tracks +. Harmony of Difference. 0 % Test CRC 8237E8BE Copy CRC 8237E8BE Track not present in AccurateRip database Copy OK Track 6 Filename E:EACSade - The Ultimate Collection (2011) [FLAC]CD16 - Never as good as the first time. We asked 33 artists and experts – from Rick Rubin to Big Boi, Mike D to Chuck D – to vote for their favorite hip-hop songs. At last this website now displays over 2800 images from this historic time. 95 LUFS (same volume for the eq reference used in Har-Bal 3. 1) Select a file to send by clicking the "Browse" button. Our radio channels feature world renowned artists, DJs, and the hottest exclusive shows. Click the "free loops" link to access a quality collection of original, royalty-free WAV loops for your music productions. Jan Sturiale Jan is an indipendent musician, composer and performing artist and educator. May 1st 1987. Re: Person I Knew 02. Title: Kuschel Jazz: Complete Collection, Vol. com ArtWork: not included Size. 95 LUFS (same volume for the eq reference used in Har-Bal 3. by Various Artists | May 19, 1998. For you who are learning about home recording and wanna learn about mixing and mastering. Photography featuring iconic performers and photographers. FLAC VA - Erotic Jazz Moments (Essential Collection) (2016) FLAC (tracks) Hi-Res Discussion in ' Albums (lossless) ' started by RVSMusic , Sep 16, 2019. Filename E:EACSade - The Ultimate Collection (2011) [FLAC]CD15 - Is it a crime. From last night’s show to the legendary archival live concerts. Official Website of multi-platinum and four-time Grammy Award-winning artist Tracy Chapman. The Original Dixieland Jazz Band - The First Jazz Recordings 1917-1921 [1998] (flac). Perfect Jazz collection 1, 2 and Columbia Jazz will give you 68 fantastic jazz CDs from Sony vaults. Artist: Various Artists Title: Acid Jazz: Collection Three Year Of Release: 2013 Label: Black Sheep Music Genre: Soul/Funk/R&B, Acid Jazz Quality: MP3 320 kbps / FLAC (tracks) Total Time: 00:59:03 Total Size: 141. His father, Carmine Coppola, was a composer and musician. Formats include Acidized WAV loops, AIFF format Apple loops, and ReCycle. Music, Film, TV and Political News Coverage. Louis Armstrong - St. FLAC 16 bit / Jazz / Vocal Jazz / Collection Best Hits All music Various Artists Quality: FLAC 16 bit / 44. [Album] 西野カナ – Secret Collection 〜RED〜 (2015. Join us today for the ultimate listening experience!. Online reggae magazine with the latest news, photos, concerts, videos, releases, reviews, interviews, articles, features and much more about Reggae and Dancehall!. Upload, share, search and download for free. 14 Peak level 90. FLAC VA - Erotic Jazz Moments (Essential Collection) (2016) FLAC (tracks) Hi-Res Discussion in ' Albums (lossless) ' started by RVSMusic , Sep 16, 2019. With its extensive collection of music, this site can be used to download music of all the different genres, the leading artists and the latest albums. Addeddate 2015-09-18 03:15:27 Identifier Smithsonian-Collection-of-Classic-Jazz-lossless Scanner Internet Archive HTML5 Uploader 1. cue), lossless. In celebration of a 2015 Summer/Fall North American Tour, VAN HALEN will perform a special concert for Jimmy Kimmel Live March 30 on Hollywood Boulevard. 01] [Album] 大野雄二 (Yuji Ohno) – Lupin The Third JAZZ the 1st [FLAC / 24bit Lossless / WEB] [1999. Fairies Wear Boots 2. VA - Vintage Cafe Collection: Lounge & Jazz Blends [Special Selection] (2007-2020) FLAC. com provides listeners a top quality resource for DSD, DXD and Analog-to-DSD Music in Stereo & Multichannel channel configurations, directly from record labels and engineers making these recordings. VA - Dynamic Audiophile Jazz Vol. 8 out of 5 stars 9. Sites you can download surround music free. 1kHz / 24bit - 96. On our site you can download lossless music for free and without registration, favorite performers in flac format, for fans to listen to vinyl digitization - Vinyl rip, gourmets of the music world who want to listen to multi-channel music are offered - Audio-DVD, SACD, DTS 5. Get this sweet little lo-fi beat construction kit for free and start making lo-fi beats today! Our favorite sample from the pack: Chords BuriedAngelAmp. Knit for Mary F 06. Ping Sounds. 6 MHz) + FLAC 24 bit / 192 kHz (Tracks) Artist: Leif Strands Kammarkör. Perfect Jazz collection 1, 2 and Columbia Jazz will give you 68 fantastic jazz CDs from Sony vaults. 0 how to change dp on facebook. 1 home theater music song in the most popular formats DVD-Audio, DTS 5. Bill Evans Trio – Consecration. His father, Carmine Coppola, was a composer and musician. ALBUMS: Part1: 27 albums. Soulstance, The Modern African Spirit – Land Of Love 4. DiMeola Plays Piazzolla is a collection of tracks written by Astor Piazzolla that Al DiMeola recorded for various. THOMAS DOLBY TAKES BREAK FROM ACADEMIA FOR SHORT SUMMER U. 5 MB / 244,73 MB WebSite: Album Preview. The website for classical music: Find the latest DG and Archiv recordings and news. Title: Kuschel Jazz: Complete Collection, Vol. Year Of Release: 2010 Format: Flac, Tracks Bitrate: lossless Sample Rate: 16bit/44. ZoNaTorrent. Cue, Log, Artwork) Time: 41:31 min. The BBC used. Fender launches 60th Anniversary Road Worn Jazz Bass with weathered finish and matching headstock. Uploaded 07-07 2019,. CDJapan is the best place to order your cardboard sleeve (mini LP) reissues or new releases with Japan only bonus. Music in its most beautiful form; Over 700,000 handpicked and selected albums in 24-bit quality; 100% fully tested, native and true 24bit Studio Masters. How to Keep Track of Your CD Collection Using Microsoft Access. The new album By The Way, I Forgive You is available now. Label: Soul Jazz Records ‎– SJR CD392 Genre: Ambient, Experimental VA - Tramp 45 RPM Single Collection, Vol. In the States, they prohibited the video for one its songs, while the tracks differed greatly by their style, which made it hard to comprehend the CD as a music unity. 0 Total Size: 7. His father, Carmine Coppola, was a composer and musician. Read More. Terms of Use; Privacy Policy; About Our Ads; Advertising © 2019 Billboard. In celebration of a 2015 Summer/Fall North American Tour, VAN HALEN will perform a special concert for Jimmy Kimmel Live March 30 on Hollywood Boulevard. Various Artists – Jazz Sax – Verve 50 Released: 2012 Genre: Jazz Bitrate: FLAC & MP3 320 KBPS. HTTP download also available at fast speeds. Tracklist:. log) | Mp3 Total Time : 02. Phone: (704) 252-2313 Fax: (704) 924-8909 Hours: Mon – Sat: 11:00 AM to 6:00 PM Sun: Closed. VA - Jazz Piano: A Smithsonian Collection [4CD Box Set] (1989) FLAC Artist: Various Artists Title: Jazz Piano: A Smithsonian Collection Year Of Release: 1989 Label: The Smithsonian Collection Of Recordings [RD 039] Genre: Jazz, Blues, Boogie Woogie, Dixieland, Swing, Bop Quality: FLAC (tracks+cue,log,booklet) Total Time: 4:23:13 Total Size: 1GB. In the meantime, these 50 best jazz albums are essential for anyone looking to start a collection, or to go beyond classics they already know. Do You Think It's Alright. Billboard is a subsidiary of Valence Media, LLC. 0kHz Read More. Francis Ford Coppola was born in 1939 in Detroit, Michigan, but grew up in a New York suburb in a creative, supportive Italian-American family. free shipping. com Please bookmark us Ctrl+D and come back soon for updates!. Buy 'Astor Piazzolla: The Ultimate Collection by Astor Piazzolla' MP3 download online from 7digital United States - Over 30 million high quality tracks in our store. Buy as CD / DVD or Download. About Billboard. Best Jazz 100 Piano Standards. Year Of Release: 2006-2013 Genre: Jazz Format: Flac, Tracks & Image +. More than 60 million tracks available for high sound quality unlimited streaming. Ping Sounds. Download compilation by VA - The 80s Collection 1984 (1993) Flac. 8 % Track quality 100. If for any reason you are not completely satisfied with a Time Life product, simply return it within 30 days. Download VA - Romantic Jazz - Collection 2000 (2000) FLAC / MP3 or any other file from Music category. What is a subscription and what is it for? A. This article will help describe how to create a unique collection of your music using Microsoft Access. VA - Classic Rock Audiophile Collection [DR14 FLAC] vtwin88cube. - Format: FLAC (tracks) - Quality: Lossless - Sample Rate: 44. Come Sunday 5. The Best Of Contemporary Smooth Jazz (2007) {FLAC} vtwin88cube. This torrent site has a massive collection of media, with users able to search for torrents of the most popular pop, rock, jazz, opera, classical, and such music. Note that the compression ratios of all lossless codecs falls in a quite narrow range; the difference between the very best and very worst is only around 7%, and only 4% for the practical codecs. In the meantime, these 50 best jazz albums are essential for anyone looking to start a collection, or to go beyond classics they already know. (Sheila Escovedo) Title : Collection: 4 Albums Year Of Release : 1984-1991 Label : Paisley Park, Warner Bros. wav Pre-gap length 0:00:02. 1) Select a file to send by clicking the "Browse" button. Uploaded 07-07 2019,. Free FLAC, WMA, APE, MP3 music download now. 1 2019 [DR15 FLAC] vtwin88cube. Jazz piano collection thelonious Monk Below are recordings and pdf transcriptions from a Thelonious Monk Transcription Book which is seemingly impossible to purchase. Artist: Various Artists Title: Acid Jazz: Collection Three Year Of Release: 2013 Label: Black Sheep Music Genre: Soul/Funk/R&B, Acid Jazz Quality: MP3 320 kbps / FLAC (tracks) Total Time: 00:59:03 Total Size: 141. By Cat Ellis 13 February 2020. Click the square icon for the pop-out player! Download file to play in your own player!. We asked 33 artists and experts – from Rick Rubin to Big Boi, Mike D to Chuck D – to vote for their favorite hip-hop songs. Chester Thompson - Powerhouse (Remastered) (1971/2020) [24bit FLAC] Taj Mahal - The Natch'l Blues (2000) [FLAC] Taj Majal Meets The Culture Musical Club Of Zanibar - Mkutano (2005) [FLAC] Taj Mahal - The Collection (1987) [FLAC] Circles Around The Sun - Circles Around The Sun (2020) [24bit FLAC]. Aloe Blacc - Christmas Funk (2018) Diana Ross - Wonderful Christmas Time (2018). 0 % Test CRC 00349403 Copy CRC 00349403 Cannot be verified as accurate (confidence 8) [30AEC232], AccurateRip returned [CC2FDC72] Copy. Just Like A Woman - Hymn To Nina. Zeno - Listen To The. Soulstance, The Modern African Spirit – Land Of Love 4. The Piano Guys ™ Official Store offers a wide selection of music, merchandise, and much more. Barney Kessel - Kessel's Kit (1969) {2015 Japan Jazz Collection 1000 Columbia-RCA Series SICJ 100} EAC rip (secure mode) | FLAC (tracks)+CUE+LOG -> 248 Mb | MP3 @320 -> 88 Mb. 1kHz Audio Channels: 2. Nov 15th 1986. June 2011, 7:34 Various / Jazz Masters 60 - The Collection. org Port 80. 1kHz / 24bit - 96. (Jazz, Blues) VA - The Perfect Jazz Collection (Box Set 25 CD's) - 2010, FLAC (tracks+. If you're looking to buy lossless music in FLAC format, from indie to classical to jazz, here are our favorite sites. Charly Antolini - Crash / Countdown download mp3 flac Various - The Beastie Collection download mp3 flac. Download 5. Torlock offers a myriad of music content from all categories – a collection that is a part of the site’s massive 5 million torrents. 5 or Classical San Diego. Aloe Blacc - Christmas Funk (2018) Diana Ross - Wonderful Christmas Time (2018). Download movie and game soundtracks! Updates OST every day! New and top soundtracks!. Free song downloads for your films, movie scores, Youtube videos, class projects, elevator, on hold, commercial & personal use. 6 MHz) + FLAC 24 bit / 192 kHz (Tracks) Artist: Leif Strands Kammarkör. Title: Music For Christmas, Albums Collection Year Of Release: 2018 Genre: Jazz, Blues, Classical, Pop, Rock, Easy Listening, Christmas Music Quality: FLAC (Tracks,covers) Total Time: 48 Albums Total Size: 16,5 Gb. Artist: Various Artists Title: Totally Wired: A Collection From Acid Jazz Year Of Release: 2018 Label: Acid Jazz Records Genre: Acid Jazz / Funk, Nu Jazz Quality: 320 kbps / FLAC (tracks) Total Time: 04:42:40 Total Size: 667,81 MB / 1,67 GB WebSite: Album Preview. The best free music player 2020: organize, tag and enjoy your music collection. From upbeat to cinematic, from dramatic to World Music and beyond. Barb Jungr. Genres: JAZZ / FLAC MUSIC / VARIOUS COLLECTION Today, 00:27 10. Here are the sounds that have been tagged with Ping free from SoundBible. 2 - Oscar Peterson, Dinah Washington, Dizzy Gillespie & others - (2010) Chill-Out Jazz - Nina Simone, Nylon, George Duke, Beady Belle. Online reggae magazine with the latest news, photos, concerts, videos, releases, reviews, interviews, articles, features and much more about Reggae and Dancehall!. FM streams the world's most addictive electronic music. 0kHz Read More. BENI – だけど放て download zip rar mp3 aac m4a flac…. Billboard is a subsidiary of Valence Media, LLC. Jazz Sabbath by Jazz Sabbath, released 10 April 2020 1. flac 63 MB. The Perfect Collection (2013) [FLAC] {20CD Sony Music Box Set}\CD01 - Django Reinhardt\11 - Manoir De Mes Reves (Django's Castle). Reggaeville - world of reggae in one village. In the meantime, these 50 best jazz albums are essential for anyone looking to start a collection, or to go beyond classics they already know. 20 GB (FLAC Stereo) | 3% RAR Recovery Label: Universal | EU | Cat#: 980 829-3 | Genre: Easy Listening, Contemporary Jazz, Ennio Morricone is one of the world’s most celebrated film composers, known to film fans and music buffs for his powerful and evocative melodies, and Dulce Pontes is. About Billboard. (Jazz, Blues) VA - The Perfect Jazz Collection (Box Set 25 CD's) - 2010, FLAC (tracks+. Yellow Magic Orchestra – YMO Ultimate Collection (2x SACD, 2003) SACD ISO + Hi-Res FLAC; Ryuichi Sakamoto – Thousand Knives (1978) [Japanese Reissue ‘2016] SACD ISO + Hi-Res FLAC. From upbeat to cinematic, from dramatic to World Music and beyond. - Time Life - Sounds Of The Seventies - Series Collection - 1989-1997 (19 CD Collection) FLAC Sounds of the Seventies: 1970 1. Free FLAC, WMA, APE, MP3 music download now. to Verve Jazz Masters 60CD flac 2 months. 1 kHz (Tracks) Artist: VA Title: Jazz Divas, The Very Best Of, Vol 3 Released: 2013 Style: Jazz, Vocal Jazz RAR Size: 763 Mb. Hemi-Sync is home to the largest collection of binaural music available to help you relax, focus, meditate, sleep & lead a more vibrant life. FLAC 16 bit / Jazz / Vocal Jazz / Collection Best Hits All music Various Artists Quality: FLAC 16 bit / 44. Days of Wine and Roses 07. Soulstance, The Modern African Spirit – Land Of Love 4. com Please bookmark us Ctrl+D and come back soon for updates!. Music CD : Shop for music CDs online at best prices in India at Amazon. Tiffany 03. 1kHz / 24bit - 96. Available in MP3 format and online. Похожие торрент - раздачи: VA - Vintage Cafe Collection: Lounge & Jazz Blends [Special Selection] (2007-2020) FLAC; VA - Vintage Cafe 8 - Red & Black 4CD (2013) - 2013, FLAC (tracks+. 0kHz Read More. 1 kHz (Tracks) / FLAC 24 bit / 96 kHz (Tracks) Artist: Camille Bertault Title: Le tigre Released: 2020 Style: Jazz, Vocal Jazz RAR Size: 280 Mb / 1. Do You Think It's Alright. Results Apply filter: only show collections - only show posts with collection size: 592. Download VA - Kuschel Jazz - Collection (17CD) (2002-2011), FLAC or any other file from Music category. May 1st 1987. Classical Music from the largest Classical Music Label. 4 MB / 163,83 MB. Here is a list of 27 AC/DC albuma that you will download with this link:- The Best Of AC/DC 76 Jailbreak Back in Black BallBreaker Blow Up Your Video Bonfire - (1) Live from The A. Louis Blues (08:50) 02. VA - Classic Rock Audiophile Collection [DR14 FLAC] vtwin88cube. Welcome to 8tracks, the best place for music discovery on the internet. These free classical music downloads are spread across 300 pages, but you can sort the list by artist name, track, album, and genre, as well as by date added and most interesting. The Piano Guys ™ Official Store offers a wide selection of music, merchandise, and much more. wav Peak level 78. Catalog Record - Electronic Resource Available Clark Decker and his mother Madeline Robertson Decker discuss their personal histories, including details about their family's century farm, which was established in 1849 in the town of Stockholm, just east of Potsdam. The BBC used. Get this sweet little lo-fi beat construction kit for free and start making lo-fi beats today! Our favorite sample from the pack: Chords BuriedAngelAmp. Louis Armstrong – Albums Collection {WEB Hi-Res} WEB Download | 10x Discs | Hi-Res | FLAC Tracks / 24bit / 48kHz-96kHz-192kHz | DSF Tracks / DSD128 / 1bit / 5. An iconic composition which has been re-recorded by numerous jazz vocalists over the years, the song was even featured in the last two installments of the Fallout video game franchise. 0 / 5 , 0 votes. Enjoy Great Jazz, Vol. log) | Mp3 Total Time : 02. Label: Soul Jazz Records ‎– SJR CD392 Genre: Ambient, Experimental VA - Tramp 45 RPM Single Collection, Vol. If for any reason you are not completely satisfied with a Time Life product, simply return it within 30 days. Frank Sinatra Collection download mp3 flac. 1 kHz (Tracks) Artist: Bob Mintzer Big Band. Quality: FLAC 24 bit / 96 kHz (Tracks) + FLAC 16 bit / 44. SACD Download. 47GB VA - Retro Jazz (A Refined Vintage Jazz Collection) (2015) [FLAC] 192. Cousin Kevin 08. 2 by Dmitri Shostakovich (1906-75). Knit for Mary F 06. Aloe Blacc - Christmas Funk (2018) Diana Ross - Wonderful Christmas Time (2018). 1 kHz / 16 Bit - Source: Digital Download - Artist: VA - Title: Coffee Chill Time voL. (Verve, with Ella Fitzgerald, live) The Far East Suite (RCA) 1967. Various Artists – Audiophile Analog Collection Vol. Hi-Res 24 bit / FLAC 16 bit / Jazz Yesterday, 14:48 31 Music_land All albums Bob Mintzer Big Band Bob Mintzer Quality: FLAC 24 bit / 88. Total Size: 4. me Blue Note, Cti, Prestige & Impulse Flac Jazz. - Format: FLAC (tracks) - Quality: Lossless - Sample Rate: 44. Newsgroup alt. Free Classical Music Downloads. DJ or Performer: VA Title: Jazz Ballads Vol. Best Jazz Albums: 50 Essentials You Need To Hear. Quality: FLAC 24 bit / 96 kHz (Tracks) + FLAC 16 bit / 44. I am a very big fan of music and so love to hear songs in CD format rather than mp3 format. cue), lossless Страницы: 1 Джазовая и Блюзовая музыка » Зарубежный джаз » Сборники зарубежного джаза (lossless). 0 / 5 , 0 votes. The file below is the raw recording of data, can be used as. 1, DVD, FLAC, APE | Archive of surround sound and lossless music for free. Twenty Four 2. Код: Exact Audio Copy V1. FLAC and PCM WAV files are converted to 48000 hz 32 bit WAV for processing The left and right channels are volume matched The audio files were volume matched to -20. Fender launches 60th Anniversary Road Worn Jazz Bass with weathered finish and matching headstock. Buy as CD / DVD or Download. The Who: Tommy-Demos 1968 01. 1kHz / 24bit - 96. Yellow Magic Orchestra - YMO Ultimate Collection (2x SACD, 2003) SACD ISO + Hi-Res FLAC; Ryuichi Sakamoto - Thousand Knives (1978) [Japanese Reissue '2016] SACD ISO + Hi-Res FLAC. Ping Sounds. VA - La Grande Histoire Du Jazz: Au Temps Du Ragti Gene Chandler - Chisound Sessions 1978-1982 (2CD) Michael Chapman - True North [2019] (flac) Nils Landgren Funk Unit - Funky ABBA [2004] (flac) Bob Dylan - The 50th Anniversary Collection / The Bob Dylan - The 50th Anniversary Collection 1963 (. Our official store is a celebration of a miraculous meeting of “guys” with the same intrinsic purpose – to make a positive impact in the lives of people all over the world through music videos. (Rescue Me). 14 Peak level 90. Sites you can download surround music free. We offer popular high-fidelity CD formats such as Platinum SHM-CD, SHM-SACD, SHM-CD, Blu-spec CD2, Blu-spec CD, HQCD (HiQualityCD), SACD. 1 home theater music song in the most popular formats DVD-Audio, DTS 5. wav Pre-gap length 0:00:02. Lead single "Højder" springs with bright, twinkling keys - part wurlitzer, part piano - balanced by a warm, sauntering bassline that has the feel of a tango. Best Jazz 100 Piano Standards. Photography featuring iconic performers and photographers. Dec 1st 1987. com ArtWork: not included Size. Hi-Res FLAC (lossless, 44. 18 GB (FLAC Mch) + 1. org Verve Jazz Masters 60CD flac Music 18 hours idope. 01 Gb Album information I like. FLAC 16 bit / Jazz / Vocal Jazz / Collection Best Hits All music Various Artists Quality: FLAC 16 bit / 44. Discover the community and the wide variety of electronic music covering Trance, House, Dance,. The Nova Collection, Vol. "Tainted Love" started as a 1964 soul song by Gloria Jones, became a huge hit when Soft Cell covered it in 1981, and was the basis for Rihanna's 2006 #1 "S. Benjamin Koppel - The Ultimate Soul & Jazz Revue (2020) FLAC FLAC 16 bit / Jazz 1-09-2020, 15:38 32 Music_land All albums Benjamin Koppel Quality: FLAC 16 bit / 44. Nuclear Burn 06:22 02. The file below is the raw recording of data, can be used as. frank zappa’s celebrated 1970 mothers lineup commemorated with unreleased 70-song collection of studio and live recordings for 50 th read more. Download compilation by VA - The 80s Collection 1984 (1993) Flac. Read More. From last night’s show to the legendary archival live concerts. KuschelRock. The Official Moody Blues website is the best place for news, merchandise, VIP ticketing, interactive forums and information about The Moody Blues. 18 GB (FLAC Mch) + 1. Quality: FLAC 16 bit / 44. UK: ABBA / The Studio Albums 8LP coloured vinyl box – £105 £125. Coleman Hawkins : One Note Samba (Samba De Uma Nota So) [00:06:00] 02. 1-8 Year Of Release: 2002-2011 Label: Sony Music Genre: Jazz, Smooth JazzQuality: MP3 320 kbps/FLAC (Tracks, covers) Total Time: 19:42:41 min Total Size: 2,8 Gb/6,95 Gb. Tiffany 03. HTTP download also available at fast speeds. Song from M*A*S*H (Suicide Is Painless) 05. You can then select photos, audio, video, documents or anything else you want to send. wav Pre-gap length 0:00:02. Do You Think It's Alright. 64MHz Total Size: 21. Download Kool_and_The_Gang-The_Singles_Collection-(836_636-2)-CD-FLAC-1988-YARD. Shining Resonance Music Collection [2014. Year Of Release: 2006-2013 Genre: Jazz Format: Flac, Tracks & Image +. 95 LUFS (same volume for the eq reference used in Har-Bal 3. com ArtWork: not included Size. Magic Pie - Collection (2005-2011) FLAC [WwW. Listen to music from Frank Sinatra like Fly Me to the Moon (In Other Words), My Way & more. Fire and. Jazz From Hell. and Lossy: MP3, WM…. The Official Moody Blues website is the best place for news, merchandise, VIP ticketing, interactive forums and information about The Moody Blues. An iconic composition which has been re-recorded by numerous jazz vocalists over the years, the song was even featured in the last two installments of the Fallout video game franchise. Discover the community and the wide variety of electronic music covering Trance, House, Dance,. It's A Boy 03. The Jazz Singers: A Smithsonian Collection of Jazz Vocals from 1919 to 1994. Download 5. Club Des Belugas - Swop download mp3 flac. Tiffany 03. The new album By The Way, I Forgive You is available now. Fairies Wear Boots 2. Top 100 songs for the year 1982 from the Billboard Year-End Hot 100 charts. Mark caters to a wide audience in this album from rock to jazz and country. zip : 220,63 MB…. FLAC (tracks) 24-bit/96 kHz | Artwork: front cover | 01:16:57 | 1645 mb Vocal Jazz, Soul | Label: Blue Note. (Rescue Me). Rat Salad 4. Sign up to Be the first to hear about new music, tour dates, exclusive giveaways, and more!. 2 by Dmitri Shostakovich (1906-75). How to Keep Track of Your CD Collection Using Microsoft Access. Louis Armstrong - Albums Collection {WEB Hi-Res} WEB Download | 10x Discs | Hi-Res | FLAC Tracks / 24bit / 48kHz-96kHz-192kHz | DSF Tracks / DSD128 / 1bit / 5. Available in MP3 format and online. Di Meola plays Piazzolla (1996) mp3, flac. Mp3 is a compressed version of the original recorded CD. 0 beta 1 from 15. Jazz Phát hành: 25-08-2020. 64MHz Total Size: 21. Container: flac (tracks) Quality: Hi-Fi, lossless audio Sample Rate: 44100 kHz / 16 bit, Stereo Source: Digital download Album Artist/Name: Chene Noir / Orphee 2000 Genre: Jazz Release Date: 2020-09-04 www publisher: hd24bit. Now, in 2002, Pitchfork seeks to prove that, amidst the smooth-jazz of Kenny G, the vanilla soul of Hall & Oates, and the hair-rock of Warrant lay a revolution in sound. [Album] 西野カナ – Secret Collection 〜RED〜 (2015. Hi-Res FLAC (lossless, 44. Код: Exact Audio Copy V1. DJ or Performer: VA Title: Jazz Ballads Vol. m3u 2 KB; 01 - Miles Davis - Flamenco Sketches (24 Bit Remastered). VA Vintage Cafe Collection [Lounge Jazz Blends] FLAC torrent download, InfoHash 4805FA6F0E2CDCB4DB1732E2707C56C7D14E8ABA. Title: Kuschel Jazz: Complete Collection, Vol. A Premium subscription allows you to enjoy additional benefits to the free service that Rapidgator offers. “The Voice of Romance: The Columbia Original Album Collection” Complete Box Set – Order Now! “Johnny Mathis – The Island” Click Here to Order Now!. Top 100 songs for the year 1982 from the Billboard Year-End Hot 100 charts. 0 / 5 , 0 votes. com ArtWork: not included Size. The Best Of Contemporary Smooth Jazz (2007) {FLAC} vtwin88cube. We offer popular high-fidelity CD formats such as Platinum SHM-CD, SHM-SACD, SHM-CD, Blu-spec CD2, Blu-spec CD, HQCD (HiQualityCD), SACD. We asked 33 artists and experts – from Rick Rubin to Big Boi, Mike D to Chuck D – to vote for their favorite hip-hop songs. All 15 albums half-speed mastered by Bob Ludwig and pressed on coloured vinyl. For seasoned jazz lovers, some Cs sound better than ones issued in the 1980s. My Foolish Heart 04. Koda Khan - Tales from the Darkside 83-88. tv 399 MB 2019-11. Year Of Release: 2010 Format: Flac, Tracks Bitrate: lossless Sample Rate: 16bit/44. 0kHz Read More. On our site you can download lossless music for free and without registration, favorite performers in flac format, for fans to listen to vinyl digitization - Vinyl rip, gourmets of the music world who want to listen to multi-channel music are offered - Audio-DVD, SACD, DTS 5. 1 kHz A Collection of Amusing and Entertaining. By admin flac-music 2020, Hi-Res & Vinyl, Jazz, Blues, Rock 0 Comments Genre : Blues, Blues Rock Release Date : 2020 Format : Flac (tracks) Quality : 24bits – 44. 0 % Test CRC 00349403 Copy CRC 00349403 Cannot be verified as accurate (confidence 8) [30AEC232], AccurateRip returned [CC2FDC72] Copy. Dec 1st 1987. org Verve Jazz Masters 60CD flac Music 18 hours idope. com Jazz FLAC Collection 9 years monova. VA - Dynamic Audiophile Jazz Vol. Reggaeville - world of reggae in one village. The free samples in the Beat Maker Lo-Fi samples collection are the perfect jumping-off point to try your hand at lo-fi beat making. 2 (2020) Indigo Jam Unit & Flexlife - Vintage Black (2009). Aldo Buonocore E La Sua Orchestra. Free FLAC, WMA, APE, MP3 music download now. Audio CD Vinyl. Похожие торрент - раздачи: VA - Vintage Cafe Collection: Lounge & Jazz Blends [Special Selection] (2007-2020) FLAC; VA - Vintage Cafe 8 - Red & Black 4CD (2013) - 2013, FLAC (tracks+. Available in MP3 format and online. The Acid Queen 09. 14 Peak level 90. The latter, the 'Platinum' tier, is cheaper than rival 24-bit offerings, though of course the focus is much narrower. You will find the latest news about The Rolling Stones, great photos, tour dates and lots more. Pottinger, was one of the unacknowledged founding fathers of Jamaican music. CDJapan is the best place to order your cardboard sleeve (mini LP) reissues or new releases with Japan only bonus. 0kHz Read More. Jazz FLAC Collection 4 torrent download locations Download Direct Jazz FLAC Collection could be available for direct download Spónsored Link google. Formats include Acidized WAV loops, AIFF format Apple loops, and ReCycle. com ArtWork: not included Size. Hi-Res FLAC (lossless, 44. If for any reason you are not completely satisfied with a Time Life product, simply return it within 30 days. “The Voice of Romance: The Columbia Original Album Collection” Complete Box Set – Order Now! “Johnny Mathis – The Island” Click Here to Order Now!. 1 kHz (Tracks) Artist: Ibrahim Electric Title: Time Machine Released: 2020 Style: Jazz, Funk, Fusion RAR Size: 873 Mb + 257 Mb. • Lossless: FLAC, APE, WAV, ALAC, etc. The Proms Companion Collection Music and features to accompany the 2020 BBC Proms season. 01 Gb Album information I like. org Verve Jazz Masters 60CD flac Music 18 hours idope. Euthanasia Waltz 05 [Jazz Rock, Fusion] Brand X - Albums Collection [1976-1980] 2014 FLAC (Jamal The Moroccan). Jazz, released in 1978, turned out the most controversial album in the band's discography. Đĩa CD Gốc Việt Nam. 9 GB | 3% RAR Recovery Label: 2xHD / Jube Legends / Audio Fidelity / Columbia | Genre: Vocal Jazz, Dixieland, Swing. Children Of The Grave Jazz Sabbath (1968) were considered to be at the forefront of the new English jazz movement. Barney Kessel - Kessel's Kit (1969) {2015 Japan Jazz Collection 1000 Columbia-RCA Series SICJ 100} EAC rip (secure mode) | FLAC (tracks)+CUE+LOG -> 248 Mb | MP3 @320 -> 88 Mb. Respect is due. org Blue Note, CTI, Prestige & Impulse FLAC Jazz Collection - 60 CD Music 14 hours torrentdownloads. The website for classical music: Find the latest DG and Archiv recordings and news. Click here to visit Torlock Torrents Average download speed: 5/mbps. VA Vintage Cafe Collection [Lounge Jazz Blends] FLAC torrent download, InfoHash 4805FA6F0E2CDCB4DB1732E2707C56C7D14E8ABA. The Golden Era of Easy Listening! 152 beautiful, relaxing hits. 26/MP3/RAR). Hemi-Sync is home to the largest collection of binaural music available to help you relax, focus, meditate, sleep & lead a more vibrant life. My Foolish Heart 04. Free Classical Music Downloads. The Allman Betts Band announced a new album, Bless Your Heart, due out on August 28 through BMG. Addeddate 2015-09-18 03:15:27 Identifier Smithsonian-Collection-of-Classic-Jazz-lossless Scanner Internet Archive HTML5 Uploader 1. Zappa – Muster Point (2020) By admin flac. Download surround sound and lossless music | DVD-Audio, DTS-CD, SACD, Audio-DVD, DTS 5. His father, Carmine Coppola, was a composer and musician. There was a day when the Sony Walkman was the go-to music player. FLAC 16 bit / Jazz / Vocal Jazz / Collection Best Hits All music Various Artists Quality: FLAC 16 bit / 44. Zeno - Listen To The. Download VA - Kuschel Jazz - Collection (17CD) (2002-2011), FLAC or any other file from Music category. The Best Of Contemporary Smooth Jazz (2007) {FLAC} vtwin88cube. Nuclear Burn 06:22 02. Year Of Release: 2006-2013 Genre: Jazz Format: Flac, Tracks & Image +. HDtracks has finally arrived in Germany with a large collection of 24-bit music titles on offer from 100s of labels across most music genres, with an especially robust amount of rock, classic rock, jazz and classical titles in both 96/24-bit quality and 192/24-bit quality, even some in 352/24, all for the discerning audiophile. Download Frank Sinatra - Trilogy Collection (3cd)[Flac] torrent or any other torrent from the Audio FLAC. One commenter loves Bleep’s business model - the artist gets half of the profit from each sale. Results Apply filter: only show collections - only show posts with collection size: 592. Photography featuring iconic performers and photographers. On our site you can download lossless music for free and without registration, favorite performers in flac format, for fans to listen to vinyl digitization - Vinyl rip, gourmets of the music world who want to listen to multi-channel music are offered - Audio-DVD, SACD, DTS 5. flacJazz 2020, FLAC, Hi-Res & Vinyl, Jazz 0 Comments Genre : Jazz Release Date : 2020 Format : Flac (tracks) / Flac (tracks) Quality : 16bit - 44. 75 GB 2019-06-21 0 0. cue ++ ALBUMS ++ full tracklist HERE!! 01 In Paris Festival International De Jazz 02 'Round About Midnight 03 Circle In The Round 04 Miles Ahead 05 Milestones 06 1958 Miles 07 At Newport 1958 08 Porgy And Bess 09 Jazz At The Plaza 10 Kind Of Blue 11 Sketches Of Spain 12 Directions. tour in July and August 2018 with a show titled An Evening of Music and Storytelling With Thomas Dolby. Louis Blues (08:50) 02. cue), lossless Страницы: 1 Джазовая и Блюзовая музыка » Зарубежный джаз » Сборники зарубежного джаза (lossless). 5 MB / 244,73 MB WebSite: Album Preview. All Rights Reserved. 6 MHz) + FLAC 24 bit / 192 kHz (Tracks) Artist: Leif Strands Kammarkör. Upload, share, search and download for free. log) | Mp3 Total Time : 02. 0kHz Read More. I am a very big fan of music and so love to hear songs in CD format rather than mp3 format. 2 kHz (Tracks) + FLAC 16 bit / 44. 0 Total Size: 7. Respect is due. What is a subscription and what is it for? A. Hemi-Sync is home to the largest collection of binaural music available to help you relax, focus, meditate, sleep & lead a more vibrant life. Full Movies via Streaming Link for free. HTTP download also available at fast speeds. 1, DVD, FLAC, APE | Archive of surround sound and lossless music for free. 1 kHz (Tracks). ZoNaTorrent. zip : 2,12 GB…. FLAC VA - Erotic Jazz Moments (Essential Collection) (2016) FLAC (tracks) Hi-Res Discussion in ' Albums (lossless) ' started by RVSMusic , Sep 16, 2019. The BBC used. Five Star Jazz Albums. Much of the Music Giants catalog is free from DRM restrictions. 1 kHz (Tracks) / FLAC 24 bit / 96 kHz (Tracks) Artist: Camille Bertault Title: Le tigre Released: 2020 Style: Jazz, Vocal Jazz RAR Size: 280 Mb / 1. At last this website now displays over 2800 images from this historic time. Twenty Four 2. Perfect Jazz collection 1, 2 and Columbia Jazz will give you 68 fantastic jazz CDs from Sony vaults. The new album By The Way, I Forgive You is available now. Browse the entire Metallica music catalog. Perfect Jazz collection 1, 2 and Columbia Jazz will give you 68 fantastic jazz CDs from Sony vaults. Hard-to-find jazz and rock vinyl. Re: Person I Knew 02. Artist: Various Artists Title: Acid Jazz: Collection Three Year Of Release: 2013 Label: Black Sheep Music Genre: Soul/Funk/R&B, Acid Jazz Quality: MP3 320 kbps / FLAC (tracks) Total Time: 00:59:03 Total Size: 141. Posters with jaw-dropping designs from legendary shows. Casey 04 June 2015 Here's what you need to know about Tidal, the upstart streaming music service that is fighting Spotify with lossless audio and exclusive content. log) | Mp3 Total Time : 02. 01] [Album] 大野雄二 (Yuji Ohno) – Lupin The Third JAZZ the 1st [FLAC / 24bit Lossless / WEB] [1999. There was a day when the Sony Walkman was the go-to music player. (Verve, with Ella Fitzgerald, live) The Far East Suite (RCA) 1967. KuschelRock. This song, originally written by Phil Collins, and was included in Fourplay’s third studio album, ‘Elixir’, with members Bob James (keyboards), Lee Ritenour (guitars), Nathan East (bass. Key features: VOX supports all popular formats including Hi-Res ones. Quality: FLAC 24 bit / 96 kHz (Tracks) + FLAC 16 bit / 44. Radiance 3. May 1st 1987. cue / log Bitrate: lossless Total Size: 56 GB Verve Jazzclub - Moods Bar Jazz - Coleman Hawkins, Billie Holiday, Dizzy Gillespie & other - (2006) Bar Jazz Vol. Catalog Record - Electronic Resource Available Clark Decker and his mother Madeline Robertson Decker discuss their personal histories, including details about their family's century farm, which was established in 1849 in the town of Stockholm, just east of Potsdam. The Allman Betts Band announced a new album, Bless Your Heart, due out on August 28 through BMG. 2 (2020) Indigo Jam Unit & Flexlife - Vintage Black (2009). 0kHz Read More. Addeddate 2015-09-18 03:15:27 Identifier Smithsonian-Collection-of-Classic-Jazz-lossless Scanner Internet Archive HTML5 Uploader 1. Francis Ford Coppola was born in 1939 in Detroit, Michigan, but grew up in a New York suburb in a creative, supportive Italian-American family. (Vocal Jazz) [CD] Carmen McRae - Priceless Jazz Collection (1955-1959) - 1998, FLAC (tracks+. [Album] 西野カナ – Secret Collection 〜RED〜 (2015. There's over two hundred thousand professionally-produced stock music. You will find the latest news about The Rolling Stones, great photos, tour dates and lots more. 9 GB | 3% RAR Recovery Label: 2xHD / Jube Legends / Audio Fidelity / Columbia | Genre: Vocal Jazz, Dixieland, Swing. • Lossless: FLAC, APE, WAV, ALAC, etc. Discover amazing music and directly support the artists who make it. HTTP download also available at fast speeds. MusicDirect. 1 kHz (Tracks) Artist: Ibrahim Electric Title: Time Machine Released: 2020 Style: Jazz, Funk, Fusion RAR Size: 873 Mb + 257 Mb. Rumba De Bodas – Freaky. This page lists all recordings of Jazz Suite No. Похожие торрент - раздачи: VA - Vintage Cafe Collection: Lounge & Jazz Blends [Special Selection] (2007-2020) FLAC; VA - Vintage Cafe 8 - Red & Black 4CD (2013) - 2013, FLAC (tracks+. The best free music player 2020: organize, tag and enjoy your music collection. The Nova Collection, Vol. Download Kool_and_The_Gang-The_Singles_Collection-(836_636-2)-CD-FLAC-1988-YARD. Check it at Orange Free Sounds. me Blue Note, Cti, Prestige & Impulse Flac Jazz. Top 100 songs for the year 1982 from the Billboard Year-End Hot 100 charts. The best free music player 2020: organize, tag and enjoy your music collection. By admin flac-music 2020, Hi-Res & Vinyl, Jazz, Blues, Rock 0 Comments Genre : Blues, Blues Rock Release Date : 2020 Format : Flac (tracks) Quality : 24bits – 44. 3 Source torrent:urn:sha1. Download 5. May 1st 1987. 20 GB (FLAC Stereo) | 3% RAR Recovery Label: Universal | EU | Cat#: 980 829-3 | Genre: Easy Listening, Contemporary Jazz, Ennio Morricone is one of the world's most celebrated film composers, known to film fans and music buffs for his powerful and evocative melodies, and Dulce Pontes is. THOMAS DOLBY TAKES BREAK FROM ACADEMIA FOR SHORT SUMMER U. VA - Enjoy Great Jazz - Collection (2019) FLAC. This torrent site has a massive collection of media, with users able to search for torrents of the most popular pop, rock, jazz, opera, classical, and such music. ALBUMS: Part1: 27 albums. The Old Masters, Box Three. Linn Records presents a fine collection of classical, jazz, and Celtic music encoded in the FLAC, WMA Lossless, and MP3 formats. Respect is due. Nuclear Burn 06:22 02. This first collection of swing & jazz performances from the archives of Acoustic Disc and Acoustic Oasis offers a broad sampling of improvisational styles and the musicians that created them, from Oscar Aleman’s classic rendition of “Russian Lullaby” (which inspired Jerry Garcia) to Garcia’s own take on Miles Davis’ “Milestones. • Lossless: FLAC, APE, WAV, ALAC, etc. Download VA - Kuschel Jazz - Collection (17CD) (2002-2011), FLAC or any other file from Music category. The Official Moody Blues website is the best place for news, merchandise, VIP ticketing, interactive forums and information about The Moody Blues. Uploaded 07-07 2019,. 1kHz Read More. Louis Blues (08:50) 02. wav Peak level 78. 47MB [100407]PSP METAL GEAR SOLID PEACE WALKER OP&キャラクターソング「HEAVENS DIVIDE/恋の抑止力」/Donna Burke、パス(CV:水樹奈々) 98. It's A Boy 03. 06] Good Morning America – Haikei, Zarathustra (Single) THE [email protected] SideM 2nd ANNIVERSARY DISC 01. What's New? August 2020: MIDI files now delivered as email attachment as well as download link! Especially useful for tablet & phone users; Summer 2020: Now download Multi Tracks directly as multiple Wave files!. Đĩa CD Gốc Việt Nam. More than 1200000 CDs, DVDs, Vinyls, Games, Technics, Equipment and Toys since 1991 at your service. Come Sunday 5. Underture 10. Respect is due. BENI – だけど放て download zip rar mp3 aac m4a flac…. For anonymity, it would be a good idea to use a VPN, due to which your true IP address won’t be traced. ‎#1 Music Player for iPhone and Mac! iTunes, personal music collection, SoundCloud®, Spotify – listen to the music in the highest quality from different music sources. [2006] Hydeout Productions (First Collection) [Nujabes] ''FLAC'' June 03, 2015 81summer Hip-Hop , Jazz Rap , Nujabes 1 comment Edit Hydeout Productions (First Collection). Download movie and game soundtracks! Updates OST every day! New and top soundtracks!. Re: Person I Knew 02. Evil Woman 3. ALBUMS: Part1: 27 albums. If you're looking to buy lossless music in FLAC format, from indie to classical to jazz, here are our favorite sites. cue ++ ALBUMS ++ full tracklist HERE!! 01 In Paris Festival International De Jazz 02 'Round About Midnight 03 Circle In The Round 04 Miles Ahead 05 Milestones 06 1958 Miles 07 At Newport 1958 08 Porgy And Bess 09 Jazz At The Plaza 10 Kind Of Blue 11 Sketches Of Spain 12 Directions. The Proms Companion Collection Music and features to accompany the 2020 BBC Proms season. Welcome to the world of royalty-free music clips! AudioJungle has one of the world's largest, high-quality collection of tracks to make any project sound right. 27 GB (ISO) + 3. tour in July and August 2018 with a show titled An Evening of Music and Storytelling With Thomas Dolby. to Verve Jazz Masters 60CD flac 2 months. Concert T-Shirts in men's, women's and children's sizes. Unlimited free The Beatles music - Click to play Come Together, Let It Be and whatever else you want! The Beatles were an English rock band, formed in Liverpool in 1960, who are often recognized as the. FM streams the world's most addictive electronic music. 1 2019 [DR15 FLAC] vtwin88cube. Now, in 2002, Pitchfork seeks to prove that, amidst the smooth-jazz of Kenny G, the vanilla soul of Hall & Oates, and the hair-rock of Warrant lay a revolution in sound. Album Elaine Paige and Friends Phát hành: 25-08-2020. Container: flac (tracks) Quality: Hi-Fi, lossless audio Sample Rate: 44100 kHz / 16 bit, Stereo Source: Digital download Album Artist/Name: Chene Noir / Orphee 2000 Genre: Jazz Release Date: 2020-09-04 www publisher: hd24bit. Catalog Record - Electronic Resource Available Clark Decker and his mother Madeline Robertson Decker discuss their personal histories, including details about their family's century farm, which was established in 1849 in the town of Stockholm, just east of Potsdam. Benjamin Koppel - The Ultimate Soul & Jazz Revue (2020) FLAC FLAC 16 bit / Jazz 1-09-2020, 15:38 32 Music_land All albums Benjamin Koppel Quality: FLAC 16 bit / 44. RLX: The Chill Out Collection Year Of Release: 2013-2020 Genre: Electro; Chill Out/Trip-Hop/Lounge Format: Flac, Tracks Bitrate: lossless Sample Rate: 16bit/44. Collection of symphonic and operatic works. Dynamic Range: 12 | Source: FLAC (24bit. Quality: FLAC 24 bit / 96 kHz (Tracks) + FLAC 16 bit / 44. In the meantime, these 50 best jazz albums are essential for anyone looking to start a collection, or to go beyond classics they already know. UK: Queen / The Studio Collection 18LP coloured vinyl box – £315 £380. In celebration of a 2015 Summer/Fall North American Tour, VAN HALEN will perform a special concert for Jimmy Kimmel Live March 30 on Hollywood Boulevard. Jazz FLAC Collection 4 torrent download locations Download Direct Jazz FLAC Collection could be available for direct download Spónsored Link google. Full Movies via Streaming Link for free. Velma Middleton - Loveless Love (04:28) 04. Jazz From Hell. 2 (2020) Indigo Jam Unit & Flexlife - Vintage Black (2009). Preservation Hall Jazz Band 2012 The 50th Anniversary Collection FLAC torrent download, InfoHash 9b1cb63c770464fb7a591cb774b51b4d0e4e7e08. — Thomas Dolby — musician, video director, author, and now a university professor — is set for a short U. Perfect Jazz collection 1, 2 and Columbia Jazz will give you 68 fantastic jazz CDs from Sony vaults. These free classical music downloads are spread across 300 pages, but you can sort the list by artist name, track, album, and genre, as well as by date added and most interesting. Hard-to-find jazz and rock vinyl. Miles Davis: The Complete Columbia Album Collection is a box set by jazz musician Miles Davis, released in 2009. Louis Armstrong & His All Stars - Yellow Dog Blues (04:16) 03. Artist: Various Artists Title: Totally Wired: A Collection From Acid Jazz Year Of Release: 2018 Label: Acid Jazz Records Genre: Acid Jazz / Funk, Nu Jazz Quality: 320 kbps / FLAC (tracks) Total Time: 04:42:40 Total Size: 667,81 MB / 1,67 GB WebSite: Album Preview. This article will help describe how to create a unique collection of your music using Microsoft Access.